[飛利浦UHD演示片]海濱的生活Supershop演示(高碼率 HEVC 10bit)[2160P/MP4/602MB]

700
回復
136031
查看
[復制鏈接]
1#
來源:4K視頻下載 2016-10-26 00:39:47 回帖獎勵 |閱讀模式
[飛利浦UHD演示片]海濱的生活Supershop演示(高碼率 HEVC 10bit)[2160P/MP4/602MB]
[飛利浦UHD演示片]海濱的生活Supershop演示(高碼率 HEVC 10bit)[2160P/MP4/602MB] [飛利浦UHD演示片]海濱的生活Supershop演示(高碼率 HEVC 10bit)[2160P/MP4/602MB] [飛利浦UHD演示片]海濱的生活Supershop演示(高碼率 HEVC 10bit)[2160P/MP4/602MB] [飛利浦UHD演示片]海濱的生活Supershop演示(高碼率 HEVC 10bit)[2160P/MP4/602MB] [飛利浦UHD演示片]海濱的生活Supershop演示(高碼率 HEVC 10bit)[2160P/MP4/602MB] [飛利浦UHD演示片]海濱的生活Supershop演示(高碼率 HEVC 10bit)[2160P/MP4/602MB] [飛利浦UHD演示片]海濱的生活Supershop演示(高碼率 HEVC 10bit)[2160P/MP4/602MB] [飛利浦UHD演示片]海濱的生活Supershop演示(高碼率 HEVC 10bit)[2160P/MP4/602MB] [飛利浦UHD演示片]海濱的生活Supershop演示(高碼率 HEVC 10bit)[2160P/MP4/602MB]

General
Complete name : Philips.UHD_Beach.Life.Supershop.Demo.mp4
Format : MPEG-4
Format version : Base Media / Version 2
Codec ID : mp42 (isom/mp42)
File size : 602 MiB
Duration : 2 min 11 s
Overall bit rate mode : Variable
Overall bit rate : 38.5 Mbps
Encoded date : UTC 2015-02-13 09:59:20
Tagged date : UTC 2015-02-13 09:59:20

Video
ID : 1
Format : HEVC
Format/Info : High Efficiency Video Coding
Format profile : Main 10@L5.1@High
Codec ID : hvc1
Codec ID/Info : High Efficiency Video Coding
Duration : 2 min 11 s
Bit rate : 38.1 Mbps
Width : 3840 pixels
Height : 2160 pixels
Display aspect ratio : 16:9
Frame rate mode : Constant
Frame rate : 24.000 FPS
Standard : Component
Color space : YUV
Chroma subsampling : 4:2:0
Bit depth : 10 bits
Bits/(Pixel*Frame) : 0.191
Stream size : 595 MiB (99%)
Language : English
Encoded date : UTC 2015-02-13 09:59:20
Tagged date : UTC 2015-02-13 09:59:20
Color range : Limited
Color primaries : BT.709

Audio
ID : 2
Format : AAC
Format/Info : Advanced Audio Codec
Mode extension : LC
Codec ID : 40
Duration : 2 min 11 s
Bit rate mode : Variable
Bit rate : 445 Kbps
Maximum bit rate : 527 Kbps
Channel(s) : 6 channels
Channel positions : Front: L C R, Side: L R, LFE
Sampling rate : 48.0 KHz
Frame rate : 46.875 FPS (1024 spf)
Compression mode : Lossy
Stream size : 6.95 MiB (1%)
Language : English
Encoded date : UTC 2015-02-13 09:59:20
Tagged date : UTC 2015-02-13 09:59:20
播放器 : Potplaye/MPC-HC
建議在大屏幕電視上觀看才能體驗最佳效果

MP4百度云盤

游客,如果您要查看本帖隱藏內容請回復


分享到:  QQ好友和群QQ好友和群
2#
2016-10-26 04:04:41
感謝樓主分享!
TV應用下載
3#
2016-10-26 05:59:10
不錯,大力支持!
4#
2016-10-26 06:41:17
不錯 應該 很舒服
5#
2016-10-26 06:59:47
感謝樓主分享!
6#
2016-10-26 07:14:27
支持樓主,4K123有你更精彩!
7#
2016-10-26 07:24:32
支持樓主,4K123有你更精彩!
8#
2016-10-26 07:45:58
又是漲姿勢了
9#
2016-10-26 07:58:35
我家4K電視又可以炫機了
10#
2016-10-26 07:58:43
試試看看
您需要登錄后才可以回帖 登錄 | 注冊
安徽快3-推荐 河北快3-推荐 河南快3-Welcome 上海快3-Home 吉林快3-安全购彩 重庆快3-Welcome 广东快3-Home 北京快3-欢迎您 广西快3-欢迎您 天津快3-浙江体彩网